Senta Berger | Friedrich von Thun | Jenny Melina Witez
 


 

Filecrypt zeigt vereinzelt Files als "n/a". Die Downloads sind trotzdem komplett.

DNS SERVER AENDERNum der staatlichen Zensur zu umgehen. Sollten wir von eurem Provider geseprrt werden, nutzt den TOR BROWSER oder ändert euren DNS SERVER.

Filmwünsche können bei uns im Forum abgegeben werden

Wir Speichern Nicht




 
 
 
Top Releases
Wolfsnaechte.2018.German.AC3...
Brawl.in.Cell.Block.99.2017....
Gravity.Diamond.Luxe.Edition...
Middle.School.The.Worst.Year...
Brawl.in.Cell.Block.99.2017....
Mindhorn.2016.German.AC3.DL....
Die.letzte.Party.deines.Lebe...
Sand.Castle.2017.German.AC3....
Skyscraper.2018.German.DL.AC...
Brawl.in.Cell.Block.99.2017....

Cinedubs
Bad.Spies.2018.German.AC3MD....
Bad.Spies.2018.German.AC3MD....
MEG.Biss.bald.2018.German.AC...
Slender.Man.2018.GERMAN.DL.A...
Slender.Man.2018.GERMAN.DL.A...
MEG.Biss.bald.2018.German.AC...
MEG.Biss.bald.2018.German.AC...
Searching.2018.German.AC3MD....
Searching.2018.German.AC3MD....
211.Cops.Under.Fire.2018.Ger...

Neuerscheinungen 2017-18
Am.Anfang.war.das.Feuer.La.g...
Uncle.Drew.2018.German.AC3.D...
Uncle.Drew.2018.German.AC3.D...
Wildes.Herz.2017.MULTi.COMPL...
Die.Biene.Maja.2.Die.Honigsp...
Die.Biene.Maja.2.Die.Honigsp...
Wildes.Herz.2017.German.1080...
Wildes.Herz.2017.German.1080...
Wildes.Herz.2017.German.720p...
Der.Schwimmer.1968.German.AC...

XXX
JapanHDV.18.10.02.Yuna.Hoshi...
Swallowed.18.09.30.Gia.Derza...
MistressT.18.03.14.Cum.On.Yo...
CherryPimps.18.10.03.Summer....
MistressT.18.03.03.MILF.Show...
MistressT.18.04.13.Sniff.Str...
Private.Specials.230.Russian...
PlayboyPlus.18.10.01.Olivia....
GloryHoleSecrets.18.10.05.Li...
Tushy.18.10.03.Eveline.Della...
DoctorAdventures.18.10.05.As...
PlumperPass.18.10.05.Harmony...
JeshByJesh.18.10.04.Gina.Val...
WankItNow.18.10.03.Natalia.F...
DorcelClub.18.10.01.Clea.Gau...
TeensLoveHugeCocks.18.10.03....
KarupsHA.18.09.29.Victoria.V...
HandsOnHardcore.18.10.03.Gin...
SlimeWave.18.10.01.Domme.Mak...
CzechHunter.18.09.26.E373.XX...

3D
Detective.Dee.und.die.Legend...
Detective.Dee.und.die.Legend...
Skyscraper.3D.German.DL.AC3....
Ant-Man.and.the.Wasp.2018.3D...
Jurassic.World.Das.gefallene...
Jurassic.World.Das.gefallene...
Best.of.3D.vol.10.-.12.GERMA...
Die.Biene.Maja.2.Die.Honigsp...
Sharknado.6.The.Last.One.3D....
Solo.A.Star.Wars.Story.3D.20...
Solo.A.Star.Wars.Story.3D.20...
Die.Biene.Maja.2.Die.Honigsp...
Avengers.Infinity.War.3D.201...
Avengers.Infinity.War.3D.201...
Rampage.Big.Meets.Bigger.3D....

Old_Stuff
Species.IV.Das.Erwachen.2007...
Species.IV.Das.Erwachen.2007...
Hotel.Transsilvanien.2012.Ge...
The.Dead.2010.German.DL.1080...
The.Dead.2.India.2013.German...
Britney.Spears.Live.The.Femm...
Buffy.The.Vampire.Slayer.199...
IMAX.Ride.Around.The.World.2...
Schimanski.-.Duisburg.Ruhror...
Akte.X.S02.German.DTS.DL.108...
How.I.Met.Your.Mother.S02.Ge...
Akte.X.S01.German.DTS.DL.108...
Den.Himmel.gibts.echt.DL.108...
Vikings.S02.German.DL.1080p....
Be.Kind.Rewind.Abgedreht.200...

Filme
Sweeney.Todd.The.Demon.Barbe...
Eine.kleine.Geschichte.ueber...
Eine.Karte.der.Klaenge.von.T...
Eine.Hochzeit.und.andere.Hin...
Wolfsnaechte.2018.German.DL....
Der.Augenzeuge.1981.German.D...
Ein.Brief.an.drei.Frauen.194...
Living.in.Oblivion.20th.Anni...
Antiviral.2012.German.DTS.DL...
Eine.Frau.unter.Einfluss.197...
Eine.fuer.4.Unterwegs.in.Sac...
Jessica.und.das.Rentier.1989...
Eine.Gefaehrliche.Affaere.19...
Blackout.Ein.Detektiv.sucht....
Der.Schwimmer.1968.German.AC...
The.Blacklist.S05D01-4.MULTi...
Undisputed.Sieg.ohne.Ruhm.20...
Requiem.for.a.Dream.2000.Ger...
The.Big.Lebowski.1998.MULTi....
Eine.Faust.geht.nach.Westen....
Eine.Frage.der.Liebe.2003.Ge...
Eine.Frau.die.alles.weiss.19...
Eine.Familie.German.1080p.Bl...
Eine.Elfe.zu.Weihnachten.201...

 
 
Jessica.und.das.Rentier.1989.German.DL.1080p.BluRay.x264-iNKLUSiON

Jahr: 1989
Genre: X-Mas
Sprache: Deutsch DTS | Englisch DTS
Laufzeit: 1h 43mn
Bitrate: 12.1 Mbps
Format: MKV
Größe: 8.73 GiB
Release:

Beschreibung:

Trotz ihrer neun Jahre und einem harten Leben als Halbwaise hat sich die kleine Jessica den Glauben an den Weihnachtsmann bewahrt. Das verwundete Rentier, das sie im Wald findet, hält sie für Prancer, eines der Tiere, das den Schlitten von Santa Claus ziehen soll. Sie pflegt “Prancer” heimlich gesund, um ihn am Heiligen Abend dem Weihnachtsmann zu übergeben. Als Jessica den Weihnachtsmann im Kaufhaus bittet, dem echten Weihnachtsmann Bescheid zu sagen, wird ihre Aktion publik. Vater verkauft aus finanzieller Not Prancer an den Metzger, doch als sich Jessica bei einer Rettungsaktion verletzt, sieht er seinen Fehler ein.



Complete name                            : inkl-prancer-1080p.mkv
Format                                   : Matroska
Format version                           : Version 4 / Version 2
File size                                : 8.73 GiB
Duration                                 : 1h 43mn
Overall bit rate                         : 12.1 Mbps
Encoded date                             : UTC 2018-10-15 01:30:21
Writing application                      : mkvmerge v9.0.1 ('Obstacles') 64bit
Writing library                          : libebml v1.3.3 + libmatroska v1.4.4
DURATION                                 : 01:43:13.323000000
NUMBER_OF_FRAMES                         : 580624
NUMBER_OF_BYTES                          : 1168215488
_STATISTICS_WRITING_APP                  : mkvmerge v9.0.1 ('Obstacles') 64bit
_STATISTICS_WRITING_DATE_UTC             : 2018-10-15 01:30:21
_STATISTICS_TAGS                         : BPS DURATION NUMBER_OF_FRAMES NUMBER_OF_BYTES

Video
ID                                       : 1
Format                                   : AVC
Format/Info                              : Advanced Video Codec
Format profile                           : High@L4.1
Format settings, CABAC                   : Yes
Format settings, ReFrames                : 4 frames
Codec ID                                 : V_MPEG4/ISO/AVC
Duration                                 : 1h 43mn
Bit rate                                 : 9 094 Kbps
Width                                    : 1 920 pixels
Height                                   : 1 040 pixels
Display aspect ratio                     : 1.85:1
Frame rate mode                          : Constant
Frame rate                               : 23.976 fps
Color space                              : YUV
Chroma subsampling                       : 4:2:0
Bit depth                                : 8 bits
Scan type                                : Progressive
Bits/(Pixel*Frame)                       : 0.190
Stream size                              : 6.38 GiB (73%)
Writing library                          : x264 core 155 r2901 7d0ff22
Encoding settings                        : cabac=1 / ref=4 / deblock=1:-1:-1 / analyse=0x3:0x113 / me=umh / subme=7 / psy=1 / psy_rd=1.00:0.00 / mixed_ref=1 / me_range=16 / chroma_me=1 / trellis=1 / 8x8dct=1 / cqm=0 / deadzone=21,11 / fast_pskip=0 / chroma_qp_offset=-2 / threads=12 / lookahead_threads=2 / sliced_threads=0 / nr=0 / decimate=1 / interlaced=0 / bluray_compat=0 / constrained_intra=0 / bframes=3 / b_pyramid=2 / b_adapt=1 / b_bias=0 / direct=3 / weightb=1 / open_gop=0 / weightp=2 / keyint=250 / keyint_min=23 / scenecut=40 / intra_refresh=0 / rc_lookahead=40 / rc=2pass / mbtree=1 / bitrate=9094 / ratetol=1.0 / qcomp=0.60 / qpmin=0 / qpmax=69 / qpstep=4 / cplxblur=20.0 / qblur=0.5 / ip_ratio=1.40 / aq=1:1.00
Default                                  : Yes
Forced                                   : No

Audio #1
ID                                       : 2
Format                                   : DTS
Format/Info                              : Digital Theater Systems
Mode                                     : 16
Format settings, Endianness              : Big
Codec ID                                 : A_DTS
Duration                                 : 1h 43mn
Bit rate mode                            : Constant
Bit rate                                 : 1 509 Kbps
Channel(s)                               : 2 channels
Channel positions                        : Front: L R
Sampling rate                            : 48.0 KHz
Bit depth                                : 24 bits
Compression mode                         : Lossy
Stream size                              : 1.09 GiB (12%)
Language                                 : German
Default                                  : Yes
Forced                                   : No

Audio #2
ID                                       : 3
Format                                   : DTS
Format/Info                              : Digital Theater Systems
Mode                                     : 16
Format settings, Endianness              : Big
Codec ID                                 : A_DTS
Duration                                 : 1h 43mn
Bit rate mode                            : Constant
Bit rate                                 : 1 509 Kbps
Channel(s)                               : 2 channels
Channel positions                        : Front: L R
Sampling rate                            : 48.0 KHz
Bit depth                                : 24 bits
Compression mode                         : Lossy
Stream size                              : 1.09 GiB (12%)
Language                                 : English
Default                                  : No
Forced                                   : No


Download:
Share Online Share OnlineShare OnlineShare Online
 

Kommentare