Filecrypt zeigt vereinzelt Files als "n/a". Die Downloads sind trotzdem komplett.

DNS SERVER AENDERNum der staatlichen Zensur zu umgehen. Sollten wir von eurem Provider geseprrt werden, nutzt den TOR BROWSER oder ändert euren DNS SERVER.

Filmwünsche können bei uns im Forum abgegeben werden

Wir Speichern Nicht




 
 
 
Top Releases
The.Kissing.Booth.2018.Germa...
The.Ritual.2017.German.AC3.D...
Feinde.Hostiles.2017.MULTi.C...
Wohne.lieber.ungewoehnlich.2...
Wohne.lieber.ungewoehnlich.2...
Journeyman.2017.German.DL.10...
Journeyman.2017.German.DL.10...
Journeyman.2017.German.720p....
Journeyman.2017.DUAL.COMPLET...
Dunkirk.2017.IMAX.German.DTS...

Cinedubs
Searching.2018.German.AC3MD....
Searching.2018.German.AC3MD....
211.Cops.Under.Fire.2018.Ger...
211.Cops.Under.Fire.2018.Ger...
The.Watcher.Willkommen.im.Mo...
The.Watcher.Willkommen.im.Mo...
MEG.Biss.bald.2018.German.AC...
MEG.Biss.bald.2018.German.AC...
Mamma.Mia.2.Here.We.Go.Again...
Mamma.Mia.2.Here.We.Go.Again...

Neuerscheinungen 2017-18
No.Way.Out.Gegen.die.Flammen...
No.Way.Out.Gegen.die.Flammen...
Muse.2017.German.DL.1080p.Bl...
Muse.2017.German.720p.BluRay...
Skyscraper.2018.3D.HSBS.Germ...
Fuenf.Freunde.und.das.Tal.de...
Death.Race.4.Beyond.Anarchy....
Death.Race.4.Beyond.Anarchy....
Super.Heroes.Aquaman.Rage.of...
Sick.for.Toys.2018.German.DL...

XXX
Nubiles.18.10.03.Dominica.Ou...
MyFirstSexTeacher.18.10.02.E...
Family.18.10.03.Maya.Kendric...
Joymii.18.10.05.Shona.River....
InterracialPass.18.09.28.Ari...
ATKGirlfriends.18.10.04.Lucy...
ClubSeventeen.18.10.04.Natal...
CreampieInAsia.18.09.21.Sumi...
DarkX.18.10.04.Aidra.Fox.Bos...
NFBusty.18.10.05.Kira.Queen....
WankItNow.17.11.18.Roxi.Keog...
MilfHunter.18.10.01.Alexis.F...
WankItNow.17.11.19.Honour.Ma...
CherryPimps.18.10.01.Isabell...
SexArt.18.10.05.Shrima.Malat...
HardX.18.10.05.Zoey.Monroe.A...
ATKHairy.18.10.04.Vestacia.J...
ExploitedCollegeGirls.18.10....
RoccoSiffredi.18.10.02.Malen...
OldYoungLesbianLove.18.10.01...

3D
Skyscraper.2018.German.DTSD....
Jurassic.World.Das.gefallene...
Jurassic.World.Das.gefallene...
Best.of.3D.vol.10.-.12.GERMA...
Die.Biene.Maja.2.Die.Honigsp...
Sharknado.6.The.Last.One.3D....
Solo.A.Star.Wars.Story.3D.20...
Solo.A.Star.Wars.Story.3D.20...
Die.Biene.Maja.2.Die.Honigsp...
Avengers.Infinity.War.3D.201...
Avengers.Infinity.War.3D.201...
Rampage.Big.Meets.Bigger.3D....
Rampage.Big.Meets.Bigger.3D....
Rampage.Big.Meets.Bigger.3D....
Winter.Games.3D.2013.DUAL.CO...

Old_Stuff
Britney.Spears.Live.The.Femm...
Buffy.The.Vampire.Slayer.199...
IMAX.Ride.Around.The.World.2...
Schimanski.-.Duisburg.Ruhror...
Akte.X.S02.German.DTS.DL.108...
How.I.Met.Your.Mother.S02.Ge...
Akte.X.S01.German.DTS.DL.108...
Den.Himmel.gibts.echt.DL.108...
Vikings.S02.German.DL.1080p....
Be.Kind.Rewind.Abgedreht.200...
Be.Kind.Rewind.Abgedreht.200...
Dracula.The.Dark.Lord.2012.G...
21.2008.German.DL.1080p.BluR...
Achtung.fertig.WK.Swissgerma...
The.Ouija.Exorcism.2015.MULT...

Filme
Earth.to.Echo.Ein.Abenteuer....
The.Fourth.Phase.2016.GERMAN...
The.Fire.Dragon.Chronicles.2...
The.Fire.Dragon.Chronicles.D...
The.Cabin.in.the.Woods.2012....
Kramer.gegen.Kramer.1979.Ger...
Anatevka.-.Fiddler.on.the.Ro...
Anatevka.-.Fiddler.on.the.Ro...
The.Flock.Dunkle.Triebe.2007...
Revenge.Of.The.Warrior.UNCUT...
Hard.Rain.1998.German.DTS-HD...
UNDERDOG.2007.MULTi.COMPLETE...
The.Flowers.of.War.2011.Germ...
The.Forbidden.Kingdom.2008.G...
The.Flying.Scotsman.2006.Ger...
Boyz.n.the.Hood.Jungs.im.Vie...
Undertow.2004.German.AC3D.DL...
Death.Race.Beyond.Anarchy.20...
Death.Race.Beyond.Anarchy.20...
Kill.the.Boss.EXTENDED.Germa...
The.Last.Man.On.Earth.S04.Ge...
The.Last.Man.On.Earth.S04.Ge...
Young.Sheldon.S01.GERMAN.DUB...
Young.Sheldon.S01.GERMAN.DUB...

 
 
The.Fourth.Phase.2016.GERMAN.SUBBED.1080p.WebHD.x264-CiHD

Jahr: 2016
Genre: Doku, Sport
Sprache: Englisch AC3
Laufzeit: 1h 32mn
Bitrate: 5 467 Kbps
Format: MKV
Größe: 3.52 GiB
Release:

Beschreibung:

Über vier Jahre hat der professionelle Snowboarder Travis Rice Filmmaterial gesammelt. Der Spitzensportler war bereits selbst Gegenstand der Dokumentation “The Art of Flight“, die 2011 veröffentlicht wurde. Diese Erfahrung hat Rice inspiriert, seinen persönlichen Blick auf den Sport zu werfen. Dabei verfolgt er in einer abenteuerlichen Reise über 26.000 Kilometer den Wasserkreislauf – von eisigen Gletscherspitzen bis zu den unendlichen Weiten des Meeres. Neben atemberaubenden Snowboarding-Aufnahmen wirft die Dokumentation einen frischen Blick auf das faszinierende Element Wasser und zeigt dessen Bedeutung für das Leben auf unserem Planeten auf. Mit dabei sind Snowboard-Größen wie Mark Landvik, Eric Jackson und Jeremy Jones.



Complete name                            : CiHD-thefourthphase-1080p.mkv
Format                                   : Matroska
Format version                           : Version 4 / Version 2
File size                                : 3.52 GiB
Duration                                 : 1h 32mn
Overall bit rate                         : 5 467 Kbps
Encoded date                             : UTC 2016-11-09 18:38:20
Writing application                      : mkvmerge v9.2.0 ('Photograph') 64bit
Writing library                          : libebml v1.3.3 + libmatroska v1.4.4
DURATION                                 : 01:32:13.952000000
NUMBER_OF_FRAMES                         : 172936
NUMBER_OF_BYTES                          : 177086464
_STATISTICS_WRITING_APP                  : mkvmerge v9.2.0 ('Photograph') 64bit
_STATISTICS_WRITING_DATE_UTC             : 2016-11-09 18:38:20
_STATISTICS_TAGS                         : BPS DURATION NUMBER_OF_FRAMES NUMBER_OF_BYTES

Video
ID                                       : 1
Format                                   : AVC
Format/Info                              : Advanced Video Codec
Format profile                           : High@L4.1
Format settings, CABAC                   : Yes
Format settings, ReFrames                : 4 frames
Codec ID                                 : V_MPEG4/ISO/AVC
Duration                                 : 1h 32mn
Bit rate                                 : 5 103 Kbps
Width                                    : 1 920 pixels
Height                                   : 1 040 pixels
Display aspect ratio                     : 1.85:1
Frame rate mode                          : Constant
Frame rate                               : 23.976 fps
Color space                              : YUV
Chroma subsampling                       : 4:2:0
Bit depth                                : 8 bits
Scan type                                : Progressive
Bits/(Pixel*Frame)                       : 0.107
Stream size                              : 3.29 GiB (93%)
Writing library                          : x264 core 148 r2705 3f5ed56
Encoding settings                        : cabac=1 / ref=4 / deblock=1:0:0 / analyse=0x3:0x113 / me=umh / subme=7 / psy=1 / psy_rd=1.00:0.00 / mixed_ref=1 / me_range=16 / chroma_me=1 / trellis=1 / 8x8dct=1 / cqm=0 / deadzone=21,11 / fast_pskip=0 / chroma_qp_offset=-2 / threads=12 / lookahead_threads=2 / sliced_threads=0 / nr=0 / decimate=1 / interlaced=0 / bluray_compat=0 / constrained_intra=0 / bframes=3 / b_pyramid=2 / b_adapt=2 / b_bias=0 / direct=3 / weightb=1 / open_gop=0 / weightp=2 / keyint=240 / keyint_min=23 / scenecut=40 / intra_refresh=0 / rc_lookahead=50 / rc=crf / mbtree=1 / crf=20.0 / qcomp=0.60 / qpmin=0 / qpmax=69 / qpstep=4 / ip_ratio=1.40 / aq=1:1.00
Default                                  : Yes
Forced                                   : No
Matrix coefficients                      : BT.709

Audio
ID                                       : 2
Format                                   : AC-3
Format/Info                              : Audio Coding 3
Mode extension                           : CM (complete main)
Format settings, Endianness              : Big
Codec ID                                 : A_AC3
Duration                                 : 1h 32mn
Bit rate mode                            : Constant
Bit rate                                 : 256 Kbps
Channel(s)                               : 2 channels
Channel positions                        : Front: L R
Sampling rate                            : 48.0 KHz
Bit depth                                : 16 bits
Compression mode                         : Lossy
Stream size                              : 169 MiB (5%)
Language                                 : English
Default                                  : Yes
Forced                                   : No


Download:
Share Online Share OnlineShare OnlineShare Online
 

Kommentare